Despicable Me 3 (2017) x 1608 (2160p) DD5 1 x265 Phun Psyz torrent download

seeders: 441
leechers: 223
updated:
Added ago by PhunPsyz ***** in Movies
Torrent Downloaded 10 times.
Info Hash: EBFDD6323A3B8B51D88D6CBDF1187A3F10EA3756


Torrent Files

Despicable Me 3 (2017) x 1608 (2160p) DD5 1 x265 Phun Psyz (Size: 1.9 GB)
  Despicable Me 3 (2017) x 1608 (2160p) DD5 1 x265 Phun Psyz 1.9 GB

Torrent Description



www.imdb.com/title/tt3469046/

Gru meets his long-lost charming, cheerful, and more successful twin brother Dru who wants to team up with him for one last criminal heist.

Source: SWAGGER (13.2 GiB)









Format : Matroska
Format version : Version 4 / Version 2
File size : 1.86 GiB
Duration : 1 h 29 min
Overall bit rate : 2 972 kb/s
Writing application : mkvmerge v9.3.1 ('Mask Machine') 64bit
Writing library : libebml v1.3.4 + libmatroska v1.4.5 / Lavf57.71.100

Video
ID : 1
Format : HEVC
Format/Info : High Efficiency Video Coding
Format profile : [email protected]@Main
Codec ID : V_MPEGH/ISO/HEVC
Duration : 1 h 29 min
Bit rate : 2 636 kb/s
Width : 3 840 pixels
Height : 1 608 pixels
Display aspect ratio : 2.40:1
Frame rate mode : Constant
Frame rate : 23.976 (24000/1001) FPS
Color space : YUV
Chroma subsampling : 4:2:0
Bit depth : 8 bits
Bits/(Pixel*Frame) : 0.018
Stream size : 1.65 GiB (89%)
Writing library : x265 2.1:[Windows][GCC 5.4.0][64 bit] 8bit

Audio
ID : 3
Format : AC-3
Format/Info : Audio Coding 3
Format settings, Endianness : Big
Codec ID : A_AC3
Duration : 1 h 29 min
Bit rate mode : Constant
Bit rate : 320 kb/s
Channel(s) : 6 channels
Channel positions : Front: L C R, Side: L R, LFE
Sampling rate : 48.0 kHz
Frame rate : 31.250 FPS (1536 SPF)
Bit depth : 16 bits
Compression mode : Lossy
Stream size : 205 MiB (11%)
Language : English
Service kind : Complete Main
Default : Yes
Forced : No

Text
ID : 2
Format : PGS
Muxing mode : zlib
Codec ID : S_HDMV/PGS
Codec ID/Info : Picture based subtitle format used on BDs/HD-DVDs
Duration : 1 h 21 min
Bit rate : 15.6 kb/s
Count of elements : 3054
Stream size : 9.06 MiB (0%)
Language : English
Default : No
Forced : No

Menu
00:00:00.000 : en:00:00:00.000
00:03:06.103 : en:00:03:06.103
00:07:57.977 : en:00:07:57.977
00:11:12.839 : en:00:11:12.839
00:16:15.766 : en:00:16:15.766
00:20:07.498 : en:00:20:07.498
00:24:07.988 : en:00:24:07.988
00:28:57.069 : en:00:28:57.069
00:32:55.348 : en:00:32:55.348
00:39:01.839 : en:00:39:01.839
00:42:44.187 : en:00:42:44.187
00:46:47.179 : en:00:46:47.179
00:50:55.636 : en:00:50:55.636
00:56:12.077 : en:00:56:12.077
01:00:02.265 : en:01:00:02.265
01:05:41.229 : en:01:05:41.229
01:10:14.544 : en:01:10:14.544
01:14:33.761 : en:01:14:33.761
01:19:29.723 : en:01:19:29.723
01:21:56.995 : en:01:21:56.995



Related Torrents

torrent name size age seed leech
914.6 MB 1 minute 403 227
876.0 MB 1 minute 644 330
823.9 MB 1 minute 22 111
879.1 MB 1 minute 722 106
2.3 GB 5 minutes 443 9

Sharing Widget


Download torrent
1.9 GB
seeders:1214
leechers:386
Despicable Me 3 (2017) x 1608 (2160p) DD5 1 x265 Phun Psyz



To share this torrent use the code below and insert it into comments, status messages, forum posts or your signature.

Torrent: Despicable Me 3 (2017) x 1608 (2160p) DD5 1 x265 Phun Psyz

Comments

Latest Searches