The Big Bang Theory (2007) S11E13 (1080p AMZN WEB DL x265 HEVC 10bit AAC 5 1 Vyndros) [UTR] torrent download

seeders: 88
leechers: 14
updated:
Added ago by Vyndros ***** in TV
Torrent Downloaded 10 times.
Info Hash: E54A36A73ADDAC6D3108462A4B2C4B451D7EF6C2


Torrent Files

The Big Bang Theory (2007) S11E13 (1080p AMZN WEB-DL x265 HEVC 10bit AAC 5 1 Vyndros) [UTR] (Size: 427.4 MB)
  The Big Bang Theory (2007) S11E13 (1080p AMZN WEB-DL x265 HEVC 10bit AAC 5 1 Vyndros) [UTR] 427.4 MB

Torrent Description












Media Information

Media Information

Code:

General
Format : Matroska
Format version : Version 4 / Version 2
File size : 427 MiB
Duration : 21 min 23 s
Overall bit rate : 2 794 kb/s
Encoded date : UTC 2018-01-12 15:02:27
Writing application : mkvmerge v15.0.0 ('Duel with the Devil') 64-bit
Writing library : libebml v1.3.5 + libmatroska v1.4.5
Writing frontend : StaxRip v1.7.0.0

Video
ID : 1
Format : HEVC
Format/Info : High Efficiency Video Coding
Format profile : Main [email protected]@Main
Codec ID : V_MPEGH/ISO/HEVC
Duration : 21 min 23 s
Bit rate : 2 345 kb/s
Width : 1 920 pixels
Height : 1 080 pixels
Display aspect ratio : 16:9
Frame rate mode : Constant
Frame rate : 23.976 (24000/1001) FPS
Color space : YUV
Chroma subsampling : 4:2:0
Bit depth : 10 bits
Bits/(Pixel*Frame) : 0.047
Stream size : 359 MiB (84%)
Writing library : x265 2.6+24-69cfe46e8a3b:[Windows][GCC 7.2.0][64 bit] 10bit
Encoding settings : cpuid=1173503 / frame-threads=3 / numa-pools=12 / wpp / no-pmode / no-pme / no-psnr / ssim / log-level=2 / input-csp=1 / input-res=1920x1080 / interlace=0 / total-frames=30770 / level-idc=0 / high-tier=1 / uhd-bd=0 / ref=3 / no-allow-non-conformance / no-repeat-headers / annexb / no-aud / no-hrd / info / hash=0 / no-temporal-layers / open-gop / min-keyint=23 / keyint=250 / gop-lookahead=0 / bframes=8 / b-adapt=2 / b-pyramid / bframe-bias=0 / rc-lookahead=50 / lookahead-slices=6 / scenecut=40 / radl=0 / no-intra-refresh / ctu=64 / min-cu-size=8 / no-rect / no-amp / max-tu-size=32 / tu-inter-depth=1 / tu-intra-depth=1 / limit-tu=0 / rdoq-level=0 / dynamic-rd=0.00 / no-ssim-rd / signhide / no-tskip / nr-intra=0 / nr-inter=0 / no-constrained-intra / no-strong-intra-smoothing / max-merge=3 / limit-refs=3 / no-limit-modes / me=3 / subme=3 / merange=57 / temporal-mvp / weightp / no-weightb / no-analyze-src-pics / deblock=0:0 / sao / no-sao-non-deblock / rd=3 / no-early-skip / no-rskip / no-fast-intra / no-tskip-fast / no-cu-lossless / no-b-intra / no-splitrd-skip / rdpenalty=0 / psy-rd=1.50 / psy-rdoq=0.00 / no-rd-refine / no-lossless / cbqpoffs=0 / crqpoffs=0 / rc=crf / crf=22.0 / qcomp=0.60 / qpstep=4 / stats-write=0 / stats-read=0 / ipratio=1.40 / pbratio=1.30 / aq-mode=3 / aq-strength=0.80 / cutree / zone-count=0 / no-strict-cbr / qg-size=32 / no-rc-grain / qpmax=69 / qpmin=0 / no-const-vbv / sar=0 / overscan=0 / videoformat=5 / range=0 / colorprim=2 / transfer=2 / colormatrix=2 / chromaloc=0 / display-window=0 / max-cll=0,0 / min-luma=0 / max-luma=1023 / log2-max-poc-lsb=8 / vui-timing-info / vui-hrd-info / slices=1 / no-opt-qp-pps / no-opt-ref-list-length-pps / no-multi-pass-opt-rps / scenecut-bias=0.05 / no-opt-cu-delta-qp / no-aq-motion / no-hdr / no-hdr-opt / no-dhdr10-opt / analysis-save=(null) / analysis-load=(null) / analysis-reuse-level=5 / scale-factor=0 / refine-intra=0 / refine-inter=0 / refine-mv=0 / no-limit-sao / ctu-info=0 / no-lowpass-dct / refine-mv-type=0 / copy-pic=1
Default : Yes
Forced : No

Audio
ID : 2
Format : AAC
Format/Info : Advanced Audio Codec
Format profile : LC
Codec ID : A_AAC
Duration : 21 min 23 s
Bit rate : 447 kb/s
Channel(s) : 6 channels
Channel positions : Front: L C R, Side: L R, LFE
Sampling rate : 48.0 kHz
Frame rate : 46.875 FPS (1024 spf)
Compression mode : Lossy
Stream size : 68.3 MiB (16%)
Language : English
Default : Yes
Forced : Yes

Subtitle
ID : 3
Format : UTF-8
Codec ID : S_TEXT/UTF8
Codec ID/Info : UTF-8 Plain Text
Duration : 20 min 59 s
Bit rate : 93 b/s
Count of elements : 443
Stream size : 14.4 KiB (0%)
Language : English
Default : No
Forced : No



Source Information

Code:

Release:
Amazon WEB-DL




Related Torrents

torrent name size age seed leech
2.8 GB 15 seconds 460 284
94.9 MB 5 minutes 433 74
12.5 MB 5 minutes 247 393
EKDV_127_AVI
Posted by   Guest  in  Video
996.7 MB 5 minutes 590 415
1.1 GB 5 minutes 437 19

Sharing Widget


Download torrent
427.4 MB
seeders:1214
leechers:386
The Big Bang Theory (2007) S11E13 (1080p AMZN WEB-DL x265 HEVC 10bit AAC 5 1 Vyndros) [UTR]



To share this torrent use the code below and insert it into comments, status messages, forum posts or your signature.

Torrent: The Big Bang Theory (2007) S11E13 (1080p AMZN WEB-DL x265 HEVC 10bit AAC 5 1 Vyndros) [UTR]

Comments

Latest Searches